#TITLE:I'm DJ Potatoe;
#SUBTITLE:;
#ARTIST:DJ Potatoe;
#TITLETRANSLIT:;
#SUBTITLETRANSLIT:;
#ARTISTTRANSLIT:;
#CREDIT:;
#BANNER:I'm DJ Potato-banner.png;
#BACKGROUND:I'm DJ Potato-bg.png;
#LYRICSPATH:;
#CDTITLE:;
#MUSIC:I'm DJ Potatoe.mp3;
#MUSICLENGTH:88.032;
#OFFSET:-0.040;
#SAMPLESTART:65.325;
#SAMPLELENGTH:12.000;
#SELECTABLE:YES;
#BPMS:0.000=99.000;
#STOPS:;
#BGCHANGES:;
#FIRSTBEAT:4.000;

#LASTBEAT:143.000;

#SONGFILENAME:Songs/ERICth MIX 2nd Style/Dj Potatoe/potatoe.sm;

#HASMUSIC:1;

#HASBANNER:1;


//---------------dance-single - MANIAC----------------
#NOTES:
     dance-single:
     MANIAC:
     hard:
     7:
     0.404,0.406,0.034,0.023,0.170,244.000,3.000,2.000,0.000,0.000:



0000
0000
0000
0000
,
0001
0001
0001
0001
,
0100
0100
0100
0100
,
1000
0000
0000
1000
0000
0000
1000
0000
0010
0000
0000
0010
0000
0000
0010
0000
,
1000
1000
0100
0100
0010
0010
0001
0001
,
1000
0000
0000
1000
0000
0000
1000
0000
1000
0000
0001
0100
0001
0000
0000
0000
,
1000
0010
0100
0010
0000
0010
0100
0000
,
1000
0001
1000
0001
1000
0010
0010
0000
,
0100
0100
0001
0001
1000
1000
0010
0010
,
2000
0000
0000
0000
0001
0000
0000
0000
3000
0000
0100
1000
0100
0000
0000
0000
,
0001
0010
0001
1000
0001
0100
0001
0000
,
1000
0000
1000
0010
0100
0010
0100
0000
,
1000
0100
0000
0100
1000
0000
1000
0000
0010
0001
0100
0001
0000
0000
0010
0100
,
0010
0000
0100
0010
0000
0000
0000
0000
1001
0000
0100
0000
0010
1000
0000
0000
,
0100
0001
0010
0001
0010
0001
1000
0000
,
0001
0000
0010
0000
0001
0000
0000
0000
0001
0000
1000
0100
0010
0000
0000
0000
,
0001
0001
0100
0010
0100
1000
1000
0000
,
0010
0010
0010
0000
1000
0100
1000
0000
,
0100
0010
0100
0001
0100
1000
0100
0000
,
0100
0010
0100
0010
0100
0000
0000
0000
0100
0010
0100
0010
0100
0000
0000
0000
,
1000
0100
0001
0000
0001
0000
1000
0100
1000
0100
1000
1000
0000
0000
0000
0000
,
0010
0010
0001
0100
0010
0100
0001
0010
,
0010
0001
1000
0100
1000
0010
1000
0001
,
1000
0000
0001
0000
1000
0000
0000
0000
1000
0000
0001
0100
0000
0000
0000
0000
,
0100
0010
0100
0001
1000
0100
0010
0000
,
0100
0001
0100
0001
0000
0000
1000
0000
0100
0000
0100
0000
0010
0000
0000
0000
,
1000
0100
0001
0100
0010
0000
0010
0000
,
0010
0000
1000
0000
0010
1000
0000
0000
0010
1000
0010
1000
0010
0000
0000
0000
,
1000
1000
0100
0100
0010
0010
0001
0001
,
1000
0000
0000
1000
0000
0000
1000
0000
1000
0000
0001
0100
0001
0000
0000
0000
,
1000
0010
0100
0010
0000
0010
0100
0000
,
1000
0001
1000
0001
1000
0010
0010
0000
,
0100
0100
0001
0001
1000
1000
0010
0010
,
2000
0000
0000
0000
0001
0000
0000
0000
3000
0000
0100
1000
0100
0000
0000
0000
,
0001
0010
0001
1000
0001
0100
0001
0000
,
1000
1001
0010
1001;

//---------------dance-single - ANOTHER----------------
#NOTES:
     dance-single:
     ANOTHER:
     medium:
     4:
     0.227,0.223,0.080,0.023,0.000,131.000,7.000,2.000,0.000,0.000:



0000
0000
0000
0000
,
0000
0000
0000
0000
,
0000
0000
0000
0000
,
0000
0000
0000
0000
,
0010
0000
1000
0000
0001
0000
0010
0001
,
0010
0001
1000
0100
,
0010
0000
0100
0000
0010
0010
0010
0000
,
0001
1000
0100
0010
,
0001
1000
0010
0000
0100
0000
0001
0000
,
0100
0000
0010
0000
1000
0100
1000
0000
,
0010
0100
0001
0010
,
0011
0000
1100
0000
,
0110
0000
0001
0000
1000
0100
1000
0000
,
0010
0010
0000
0010
,
0001
0000
1000
0000
0000
0100
1000
0000
,
0010
0000
0100
0000
0000
0010
0001
0000
,
0001
0100
0010
0100
,
0010
0010
0010
0000
0100
0100
0100
0000
,
1000
0001
0100
0010
,
0010
0000
1000
0000
0001
1000
0010
0000
,
0100
0001
0100
0100
,
1000
0010
1010
0001
,
0100
0010
1100
0100
,
0010
0000
0001
0000
0010
0001
0010
0000
,
0001
0100
0010
1000
,
0000
0001
0000
0001
,
1000
0010
1000
0100
,
0000
0220
0000
0330
,
1001
0010
0100
0010
,
0001
0000
1000
0000
0010
1000
0010
0000
,
0100
0001
0100
0001
,
0010
0001
0100
1000
,
0010
1000
0100
0001
,
1000
0000
0010
0000
0001
1000
0001
0000
,
0100
0010
0010
0100
,
1000
0100
0010
0001;

//---------------dance-single - BASIC----------------
#NOTES:
     dance-single:
     BASIC:
     easy:
     2:
     0.128,0.162,0.057,0.000,0.000,74.000,5.000,0.000,0.000,0.000:



0000
0000
0000
0000
,
0000
0000
0000
0000
,
0000
0000
0000
0000
,
0000
0000
0000
0000
,
0010
0000
0100
0000
,
0001
0100
1000
0100
,
0010
0000
0100
0000
,
0001
0000
0000
1000
,
0010
0000
0001
0000
,
0010
0100
1000
0000
,
0001
0000
0010
0000
,
0100
0000
0010
0010
,
0100
0000
0001
0000
,
1000
0000
0010
0000
,
0000
0100
0000
0010
,
0000
0010
0000
1001
,
0000
0010
0000
1000
,
0000
0100
0000
0001
,
0000
0010
0000
0100
,
0000
0010
1000
0001
,
0100
0000
0010
0000
,
0010
0000
0010
0000
,
0100
0000
0001
0000
,
0100
0000
0001
1100
,
0001
0000
1000
0000
,
0000
0010
0000
0010
,
0000
1000
0000
0010
,
0000
0001
1000
0001
,
0110
0000
0110
0000
,
0100
0001
0000
0100
,
0001
0001
0000
0000
,
0010
1000
0000
0000
,
1000
1000
0000
0010
,
0000
0100
1000
0000
,
0001
0000
1000
0000
,
0010
0000
0100
1100;
